FilenameCommandSize
Current location: 2017/2017-07-21 (New York, NY - Madison Square Garden)
Parent DirectoryOpen-
1.01 - CrowdStream Download4,690.50 KB
1.02 - Shake Your CoconutsStream Download8,954.50 KB
1.03 - Martian MonsterStream Download14,560.50 KB
1.04 - Timber (Jerry The Mule)Stream Download22,386.50 KB
1.05 - 555Stream Download17,224.00 KB
1.06 - PigtailStream Download18,240.50 KB
1.07 - Halfway To The MoonStream Download19,226.00 KB
1.08 - RebaStream Download26,693.50 KB
1.09 - Moonage DaydreamStream Download14,673.00 KB
1.10 - Walls Of The CaveStream Download26,389.50 KB
2.01 - CrowdStream Download5,512.00 KB
2.02 - TweezerStream Download32,019.50 KB
2.03 - Seven BelowStream Download27,810.50 KB
2.04 - Billy BreathesStream Download12,779.50 KB
2.05 - SparkleStream Download11,057.00 KB
2.06 - Everythings RightStream Download24,472.50 KB
2.07 - Slave To The Traffic LightStream Download20,388.00 KB
2.08 - Suzy GreenbergStream Download18,437.50 KB
2.09 - CoconutStream Download7,838.50 KB
2.10 - Encore BreakStream Download7,823.00 KB
E.01 - The Mango SongStream Download17,368.00 KB
E.02 - Good Times Bad TimesStream Download15,808.00 KB
Stream Show
Download Show (ZIP file)
365.58 MB
Powered by a modified Mp3ToolBox

- Show Info | Reviews | Source Info -
 

Source Information

length expanded size cdr WAVE problems fmt ratio filename
0:09.00 1587644 B --- -- ---xx flac 0.3269 in3ph2017-07-21s2t10.encore_breakfade.flac
0:09.00 1587644 B --- -- ---xx flac 0.2355 out2ph2017-07-21s2t11.Mangofade.flac
0:42.20 7455884 B --- -- ---xx flac 0.9231 ph2017-07-21s1t01.crowd_in.flac
3:04.03 32464700 B --- -- ---xx flac 0.6849 ph2017-07-21s1t02.Shake_Your_Coconuts.flac
5:59.07 63344108 B --- -- ---xx flac 0.5861 ph2017-07-21s1t03.Martian.flac
8:30.72 90133388 B --- -- ---xx flac 0.5700 ph2017-07-21s1t04.Timber.flac
7:32.29 79801052 B --- -- ---xx flac 0.5480 ph2017-07-21s1t05.555.flac
7:58.66 84474476 B --- -- ---xx flac 0.5623 ph2017-07-21s1t06.Pigtail.flac
8:43.67 92414828 B --- -- ---xx flac 0.5671 ph2017-07-21s1t07.Halfway.flac
12:52.10 136204364 B --- -- ---xx flac 0.5483 ph2017-07-21s1t08.Reba.flac
6:08.04 64924652 B --- -- ---xx flac 0.6226 ph2017-07-21s1t09.Moonage_Daydream.flac
12:48.64 135625772 B --- -- ---xx flac 0.5519 ph2017-07-21s1t10.WotC.flac
1:11.42 12623228 B --- -- ---xx flac 0.6686 ph2017-07-21s2t01.crowd_in.flac
15:41.07 166008908 B --- -- ---xx flac 0.5653 ph2017-07-21s2t02.Tweezer.flac
13:31.32 143135708 B --- -- ---xx flac 0.5556 ph2017-07-21s2t03.7_Below.flac
5:09.55 54637004 B --- -- ---xx flac 0.5667 ph2017-07-21s2t04.BBreathes.flac
4:12.28 44518700 B --- -- ---xx flac 0.6295 ph2017-07-21s2t05.Sparkle.flac
11:33.59 122384012 B --- -- ---xx flac 0.5838 ph2017-07-21s2t06.Everythings_Right.flac
9:22.50 99254444 B --- -- ---xx flac 0.5488 ph2017-07-21s2t07.Slave.flac
8:13.37 87052268 B --- -- ---xx flac 0.5823 ph2017-07-21s2t08.Suzy.flac
2:26.34 25834412 B --- -- ---xx flac 0.5623 ph2017-07-21s2t09.Coconut.flac
2:28.08 26126060 B --- -- ---xx flac 0.5647 ph2017-07-21s2t10.encore_break.flac
7:42.42 81595628 B --- -- ---xx flac 0.5802 ph2017-07-21s2t11.Mango.flac
6:49.73 72319340 B --- -- ---xx flac 0.5986 ph2017-07-21s2t12.GTBT.flac
163:01.59 1725508224 B 0.5734 (24 files)