FilenameCommandSize
Current location: 2010/2010-10-15 (North Charleston, SC - North Charleston Coliseum)
Parent DirectoryOpen-
1.01 - IntroStream Download1,571.78 KB
1.02 - Punch You In The EyeStream Download14,101.62 KB
1.03 - PossumStream Download15,614.54 KB
1.04 - Bathtub GinStream Download22,354.65 KB
1.05 - Bill Bailey, Wont You Please Come HomeStream Download8,760.37 KB
1.06 - Boogie On Reggae WomanStream Download9,742.81 KB
1.07 - Destiny UnboundStream Download10,585.51 KB
1.08 - Backwards Down The Number LineStream Download14,729.66 KB
1.09 - Bouncing Around The RoomStream Download6,762.26 KB
1.10 - StashStream Download21,805.06 KB
1.11 - JoyStream Download10,810.55 KB
1.12 - Buffalo BillStream Download3,692.98 KB
1.13 - Dog Faced BoyStream Download4,081.00 KB
1.14 - Run Like An AntelopeStream Download19,602.43 KB
2.01 - Down With DiseaseStream Download22,243.23 KB
2.02 - Prince CaspianStream Download12,976.07 KB
2.03 - TwistStream Download15,363.06 KB
2.04 - Roses Are FreeStream Download9,814.58 KB
2.05 - My Friend My FriendStream Download10,274.96 KB
2.06 - My Problem Right ThereStream Download10,707.40 KB
2.07 - TubeStream Download6,731.56 KB
2.08 - Mikes SongStream Download15,010.30 KB
2.09 - The HorseStream Download2,001.94 KB
2.10 - Silent In The MorningStream Download9,234.26 KB
2.11 - Mexican CousinStream Download5,440.00 KB
2.12 - Weekapaug GrooveStream Download11,251.38 KB
2.13 - Suzy GreenbergStream Download11,664.18 KB
2.14 - Slave To The Traffic LightStream Download18,357.78 KB
2.15 - CrowdStream Download5,955.37 KB
E.01 - Character ZeroStream Download14,302.63 KB
Stream Show
Download Show (ZIP file)
337.45 MB
Powered by a modified Mp3ToolBox

- Show Info | Reviews | Source Info -
 

Source Information

Phish
October 15, 2010
North Charleston Coliseum
North Charleston, SC

Source: AKG 483 (OTS, DIN @ 10ft) > Oade m248 > Oade mod-SBM-1 > JB3 @ 44.1kHz
Transfer: JB3 > WaveLab > CD Wave > flac (6)
Taped, Transferred & Seeded by: BobbyHurley

Set I / Disc 1

01. Intro
02. Punch You In The Eye
03. Possum
04. Bathtub Gin
05. Bill Bailey, Won't You Please Come Home *
06. Boogie On Reggae Woman
07. Destiny Unbound
08. Backwards Down The Number Line
09. Bouncing Around The Room
10. Stash
11. Joy

Set I cont. / Disc 2

01. Buffalo Bill
02. Dog Faced Boy
03. Run Like An Antelope

Set II / Disc 2 cont.

04. Down With Disease >
05. Prince Caspian >
06. Twist
07. Roses Are Free >
08. My Friend, My Friend >
09. My Problem Right There
10. Tube

Set II cont. / Disc 3

01. Mike's Song >
02. The Horse >
03. Silent In The Morning
04. Mexican Cousin
05. Weekapaug Groove
06. Suzy Greenberg
07. Slave to the Traffic Light
08. Crowd
-- Encore --
09. Character Zero

* - w/ Jack McConnell on vocals and tap shoes

----------------------------------------------

SHNtool Output

length expanded size cdr WAVE problems filename
0:55.38 9791420 --- -- ----- phish2010-10-15d1t01.wav
7:56.42 84065228 --- -- ----- phish2010-10-15d1t02.wav
8:31.58 90276860 --- -- ----- phish2010-10-15d1t03.wav
12:32.11 132678716 --- -- ----- phish2010-10-15d1t04.wav
5:00.68 53079980 --- -- ----- phish2010-10-15d1t05.wav
5:34.21 58967036 --- -- ----- phish2010-10-15d1t06.wav
5:45.21 60907436 --- -- ----- phish2010-10-15d1t07.wav
7:59.23 84549740 --- -- ----- phish2010-10-15d1t08.wav
3:53.59 41240012 --- -- ----- phish2010-10-15d1t09.wav
12:13.10 129324764 --- -- ----- phish2010-10-15d1t10.wav
6:03.20 64080284 --- -- ----- phish2010-10-15d1t11.wav
2:04.23 21927740 --- -- ----- phish2010-10-15d2t01.wav
2:30.62 26605868 --- -- ----- phish2010-10-15d2t02.wav
10:23.05 109909004 --- -- ----- phish2010-10-15d2t03.wav
12:07.60 128383964 --- -- ----- phish2010-10-15d2t04.wav
7:00.21 74137436 --- -- ----- phish2010-10-15d2t05.wav
8:28.64 89761772 --- -- ----- phish2010-10-15d2t06.wav
5:09.72 54676988 --- -- ----- phish2010-10-15d2t07.wav
5:37.45 59552684 --- -- ----- phish2010-10-15d2t08.wav
6:06.68 64722380 --- -- ----- phish2010-10-15d2t09.wav
3:30.21 37093436 --- -- ----- phish2010-10-15d2t10.wav
7:46.01 82204796 --- -- ----- phish2010-10-15d3t01.wav
1:10.29 12416252 --- -- ----- phish2010-10-15d3t02.wav
5:11.50 54978044 --- -- ----- phish2010-10-15d3t03.wav
2:51.66 30319676 --- -- ----- phish2010-10-15d3t04.wav
5:44.62 60827468 --- -- ----- phish2010-10-15d3t05.wav
6:01.06 63694556 --- -- ----- phish2010-10-15d3t06.wav
10:22.12 109749068 --- -- ----- phish2010-10-15d3t07.wav
3:35.44 38029532 --- -- ----- phish2010-10-15d3t08.wav
7:05.44 75073532 --- -- ----- phish2010-10-15d3t09.wav
189:15.01 1910.23 MB (totals for 30 files, 1.0000 overall compression ratio)

----------------------------------------------

FLAC Fingerprint

phish2010-10-15d1t01.flac:facd7ceeb60a8db6fd0bda1b20bca0b5
phish2010-10-15d1t02.flac:d2cb924601f153b8e51e7208fd471a55
phish2010-10-15d1t03.flac:2de65cc19d9837457f6a62b5dd226761
phish2010-10-15d1t04.flac:478eef536ff015975323d474406aafb1
phish2010-10-15d1t05.flac:e81b2d36c6ad43387f7d270cab956b55
phish2010-10-15d1t06.flac:be7107d9329d79cd153f1270d29b0a33
phish2010-10-15d1t07.flac:581779dc18fd5e92d9c1e87c159f3897
phish2010-10-15d1t08.flac:f7155c73ffc58ac7fe5d0433b37c4e3c
phish2010-10-15d1t09.flac:5f49fe4dfc2e412b3b8f709c88347ac5
phish2010-10-15d1t10.flac:49ea40de3f601d8de2b49021b43f42aa
phish2010-10-15d1t11.flac:d7cb01f901abfee3368a78789b5293ae
phish2010-10-15d2t01.flac:ef359692bac14eca1889c604d393b5a7
phish2010-10-15d2t02.flac:17690a1b15786fef73fbf7e3cf4b8a52
phish2010-10-15d2t03.flac:1bc4937b69049d600c2da79188ec8db6
phish2010-10-15d2t04.flac:cc2fe88453bb4f2708b996f2c27921b1
phish2010-10-15d2t05.flac:c3089835692e543cb1b6dacbed1b4407
phish2010-10-15d2t06.flac:846d8d58d686a9aece9a1ce62ff7566a
phish2010-10-15d2t07.flac:e5bc43e308f07800fdd8791b574623e5
phish2010-10-15d2t08.flac:590b176de0d041607ee64ab200649407
phish2010-10-15d2t09.flac:8a2446212bf282b9a6f8ecad0259c721
phish2010-10-15d2t10.flac:f51ba8a2d7408af175d7d87951a895d4
phish2010-10-15d3t01.flac:2a292979142d6b52fc9ceabe7d6de757
phish2010-10-15d3t02.flac:10693a58832d9e67b78dcc31a4724414
phish2010-10-15d3t03.flac:bf2d712b26756e82bbca8c9ad316e262
phish2010-10-15d3t04.flac:209819fd5a59832ddeb3807620dc7626
phish2010-10-15d3t05.flac:1f45998ec6c54d187db2ccec857496a5
phish2010-10-15d3t06.flac:70a69848b4f933e8f041c1fd0459a6e2
phish2010-10-15d3t07.flac:e04cff4414889d4a8b48cdd7f005d298
phish2010-10-15d3t08.flac:cdd10e5fa1776b23342295b11f316259
phish2010-10-15d3t09.flac:39d84a1c08c436e96aaf1fe402f62591

----------------------------------------------