FilenameCommandSize
Current location: 2010/2010-08-18 (Wantagh, NY - Nikon Theatre at Jones Beach)
Parent DirectoryOpen-
1.01 - IntroStream Download1,283.55 KB
1.02 - Down With DiseaseStream Download13,430.41 KB
1.03 - Sample In A JarStream Download9,277.98 KB
1.04 - Guelah PapyrusStream Download10,580.55 KB
1.05 - Poor HeartStream Download3,806.19 KB
1.06 - OcelotStream Download18,102.53 KB
1.07 - Chalkdust TortureStream Download10,947.82 KB
1.08 - Bathtub GinStream Download18,980.79 KB
1.09 - TubeStream Download7,357.83 KB
1.10 - Destiny UnboundStream Download10,709.35 KB
1.11 - JoyStream Download9,338.17 KB
1.12 - Run Like An AntelopeStream Download20,063.45 KB
2.01 - IntroStream Download2,257.44 KB
2.02 - AxillaStream Download5,715.27 KB
2.03 - Timber (Jerry The Mule)Stream Download8,951.88 KB
2.04 - LightStream Download22,567.83 KB
2.05 - 46 DaysStream Download11,517.62 KB
2.06 - My Friend My FriendStream Download10,201.03 KB
2.07 - Harry HoodStream Download23,872.36 KB
2.08 - TweezerStream Download17,626.28 KB
2.09 - The HorseStream Download2,219.40 KB
2.10 - Silent In The MorningStream Download8,851.33 KB
2.11 - You Enjoy MyselfStream Download35,984.47 KB
E.01 - Suzy GreenbergStream Download9,436.18 KB
E.02 - Tweezer RepriseStream Download7,569.59 KB
Stream Show
Download Show (ZIP file)
293.60 MB
Powered by a modified Mp3ToolBox

- Show Info | Reviews | Source Info -
 

Source Information

Phish
2010-08-18
Nikon Theatre At Jones Beach
Wantagh, NY

Recorded and transferred by Andy Murray

From the Taper's section left of center DIN
Schoeps MK41>KC5>CMC6>sonosax SX-M2>apogee Mini-me(aes out 24bit/96khz)>COAX>Edirol R-44
SDHC Card>usb>Macbook Pro>Bias Peak 5.2(tracking,fades,resample/dither to 16bit/44.1khz)>XAct(FLAC 8,ffp,fix sbe)

2 Sets
3 Discs

Disc 1:
Set 1:

01 Intro
02 Down With Disease
03 Sample In A Jar
04 Guelah Papyrus
05 Poor Heart
06 Ocelot
07 Chalk Dust Torture
08 Bathtub Gin
09 Tube
10 Destiny Unbound
11 Joy
12 Run Like An Antelope

Disc 2:
Set 2:

01 Inro
02 Axilla I
03 Timber Ho
04 Light
05 46 Days
06 My Friend, My Friend
07 Harry Hood
08 Tweezer
09 The Horse>
10 Silent In The Morning

Disc 3:
Set 2 cont…

11 You Enjoy Myself
Encore:
12 Suzy Greenberg
13 Tweezer Reprise

ph2010-08-18_mk41_1644_d1t01.flac:3960dea9b57f0fc557ba8c7bae456cdd ph2010-08-18_mk41_1644_d1t02.flac:399938240b96447687e61a4a5e7e3927 ph2010-08-18_mk41_1644_d1t03.flac:e8df968d2913292b19b9b3a923c13e6e ph2010-08-18_mk41_1644_d1t04.flac:4c8eda75e81a2a8dd5dfdb5e24be3e76 ph2010-08-18_mk41_1644_d1t05.flac:3c4859fe889b08111f13098c2ef231c4 ph2010-08-18_mk41_1644_d1t06.flac:5d2c42dd0cdcb01c262b1fe068c3ccd9 ph2010-08-18_mk41_1644_d1t07.flac:b1d33cd5edbd370a23d4f588df8d73f8 ph2010-08-18_mk41_1644_d1t08.flac:90ddaccdde0f5ba8baae21704abab6e5 ph2010-08-18_mk41_1644_d1t09.flac:43e60d9946178871564060e7d5c2206f ph2010-08-18_mk41_1644_d1t10.flac:798e0d9737ad8925f95c95f475b12dce ph2010-08-18_mk41_1644_d1t11.flac:70e4646bfe8318a813f476a5e97d364b ph2010-08-18_mk41_1644_d1t12.flac:9af023e4f9d0f7d3d209f219b929b83b ph2010-08-18_mk41_1644_d2t01.flac:da2775bc52d98f5a8f939cea9850c170 ph2010-08-18_mk41_1644_d2t02.flac:318d82704fdbd45ae489d60daa5e6ab6 ph2010-08-18_mk41_1644_d2t03.flac:ac43a37318f59fc11e2e9e4cd868581e ph2010-08-18_mk41_1644_d2t04.flac:8668e8dd67807a9a9b63e07db24898e1 ph2010-08-18_mk41_1644_d2t05.flac:771a404e62b10a7063e81b6c02bbb7b3 ph2010-08-18_mk41_1644_d2t06.flac:ea726ee68f9c28728e55d773d83a978e ph2010-08-18_mk41_1644_d2t07.flac:aff76d39ba12f357593e25b99ffef195 ph2010-08-18_mk41_1644_d2t08.flac:74a905b3ec0c78639d8eb85ed61e2a77 ph2010-08-18_mk41_1644_d2t09.flac:9c5800b057ad26285eb6c4e494f2c302 ph2010-08-18_mk41_1644_d2t10.flac:539f7affc2a51a988824d4767de96a1a ph2010-08-18_mk41_1644_d3t01.flac:13dc0dea07bff1f270e11cc31764ba10 ph2010-08-18_mk41_1644_d3t02.flac:1d0295e4a3f41bc6f51f7bc4442bf68b ph2010-08-18_mk41_1644_d3t03.flac:6368cb89a5de1e2ab0b6952482d26769

length expanded size cdr WAVE problems fmt ratio filename 0:42.68 7568780 B --- -- ----- ph2010-08-18_mk41_1644_d1t01.wav 8:05.16 85591676 B --- -- ----- ph2010-08-18_mk41_1644_d1t02.wav 5:27.48 57795740 B --- -- ----- ph2010-08-18_mk41_1644_d1t03.wav 6:12.51 65740796 B --- -- ----- ph2010-08-18_mk41_1644_d1t04.wav 2:17.26 24227996 B --- -- ----- ph2010-08-18_mk41_1644_d1t05.wav 10:34.29 111905852 B --- -- ----- ph2010-08-18_mk41_1644_d1t06.wav 6:30.17 68836028 B --- -- ----- ph2010-08-18_mk41_1644_d1t07.wav 11:16.07 119262908 B --- -- ----- ph2010-08-18_mk41_1644_d1t08.wav 4:14.50 44923244 B --- -- ----- ph2010-08-18_mk41_1644_d1t09.wav 6:21.03 67215500 B --- -- ----- ph2010-08-18_mk41_1644_d1t10.wav 5:28.27 57922748 B --- -- ----- ph2010-08-18_mk41_1644_d1t11.wav 11:48.12 124919468 B --- -- ----- ph2010-08-18_mk41_1644_d1t12.wav 1:10.29 12416252 B --- -- ----- ph2010-08-18_mk41_1644_d2t01.wav 3:22.14 35665772 B --- -- ----- ph2010-08-18_mk41_1644_d2t02.wav 5:24.21 57203036 B --- -- ----- ph2010-08-18_mk41_1644_d2t03.wav 13:32.31 143309756 B --- -- ----- ph2010-08-18_mk41_1644_d2t04.wav 6:51.29 72568652 B --- -- ----- ph2010-08-18_mk41_1644_d2t05.wav 6:03.60 64174364 B --- -- ----- ph2010-08-18_mk41_1644_d2t06.wav 14:05.73 149229740 B --- -- ----- ph2010-08-18_mk41_1644_d2t07.wav 10:21.21 109593836 B --- -- ----- ph2010-08-18_mk41_1644_d2t08.wav 1:15.28 13295900 B --- -- ----- ph2010-08-18_mk41_1644_d2t09.wav 5:15.29 55634252 B --- -- ----- ph2010-08-18_mk41_1644_d2t10.wav 20:30.50 217089644 B --- -- ----- ph2010-08-18_mk41_1644_d3t01.wav 5:32.16 58602476 B --- -- ----- ph2010-08-18_mk41_1644_d3t02.wav 4:10.08 44118860 B --- -- ----- ph2010-08-18_mk41_1644_d3t03.wav 176:34.13 1868813276 B 1.0000 (25 files)