FilenameCommandSize
Current location: 2010/2010-08-17 (Wantagh, NY - Nikon Theatre at Jones Beach)
Parent DirectoryOpen-
1.01 - FluffheadStream Download26,768.84 KB
1.02 - Kill Devil FallsStream Download13,845.11 KB
1.03 - CitiesStream Download12,399.63 KB
1.04 - Funky BitchStream Download10,583.83 KB
1.05 - WilsonStream Download10,803.38 KB
1.06 - RebaStream Download22,276.78 KB
1.07 - Walk AwayStream Download11,410.17 KB
1.08 - Wolfmans BrotherStream Download15,093.57 KB
1.09 - PossumStream Download18,895.75 KB
2.01 - LengthwiseStream Download2,306.50 KB
2.02 - MazeStream Download17,772.99 KB
2.03 - Halleys CometStream Download9,937.50 KB
2.04 - Mikes SongStream Download13,367.32 KB
2.05 - SimpleStream Download16,069.32 KB
2.06 - Backwards Down The Number LineStream Download25,052.79 KB
2.07 - Prince CaspianStream Download10,162.83 KB
2.08 - Rock And RollStream Download20,502.82 KB
2.09 - Weekapaug GrooveStream Download13,772.35 KB
2.10 - Loving CupStream Download12,121.08 KB
E.01 - Show Of LifeStream Download10,927.98 KB
E.02 - Golgi ApparatusStream Download10,040.11 KB
Stream Show
Download Show (ZIP file)
296.98 MB
Powered by a modified Mp3ToolBox

- Show Info | Reviews | Source Info -
 

Source Information

Phish
Nikon At Jones Beach Theatre
Wantagh, New York
8/17/2010

Source: Schoeps CCM4V'S(din)>Lunatec V2>Benchmark AD2K>
Sound Devices 722 (24/48)
OTS/DFC/KFC/ZFC/AARP Section 9, Row C, Seat 1, 7' High
DSP: Sound Devices 722>Sound Forge 9.0>CD Wave>flac(16)
Recorded By: Z-Man
Seeded By: Z-Man

Disc I 1st Set

01 Fluffhead
02 Kill Devil Falls >
03 Cities
04 Funky Bitch
05 Wilson
06 Reba
07 Walk Away
08 Wolfman's Brother >
09 Possom

Disc II 2nd Set

01 Lengthwise >
02 Maze
03 Halley's Comet >
04 Mike's Song >
05 Simple >
06 Backwards Down The Number Line >
07 Prince Caspian >
08 Rock And Roll >
09 Weakapaug Groove
10 Loving Cup

Disc III Encore

01 Show Of Life
02 Golgi Apparatus

Flac fingerprint

phish2010-08-17d01t01.flac:7e7a9a07e03fb82f34f78c044861d956
phish2010-08-17d01t02.flac:1574fdacbee7fab1145a855169ec2d6a
phish2010-08-17d01t03.flac:f3dc24c254bfc7d14699040d63aa8648
phish2010-08-17d01t04.flac:a52352076a517ce8c19eb90c1c25a5bc
phish2010-08-17d01t05.flac:c1fc0193e52f151c9e8faccc2fa675e1
phish2010-08-17d01t06.flac:3db4ba14234a55e9cf5f3c9a7b075192
phish2010-08-17d01t07.flac:ac5b0e9d80e145491a7a75d69ff219a3
phish2010-08-17d01t08.flac:7385857f15f178d33d27f4b88969f8bc
phish2010-08-17d01t09.flac:c39b647500c8747719edadf02d3cf475
phish2010-08-17d02t01.flac:fa551ee3619c9df2abc2cb8743e88b80
phish2010-08-17d02t02.flac:0611eda7c05deeca763695923077ca8c
phish2010-08-17d02t03.flac:ff224f551cf1fb61281f1bfbd6228004
phish2010-08-17d02t04.flac:2ef1a196905925ca64a804fe17cdecc7
phish2010-08-17d02t05.flac:6dfe3837bdc6ef20740c2170992806a4
phish2010-08-17d02t06.flac:b2606e846d59a9f493451dd7b5d2b24f
phish2010-08-17d02t07.flac:d9e95e70ad5d669636319d64bf81031f
phish2010-08-17d02t08.flac:c72fc7b945664a2df43629639c8e5ed9
phish2010-08-17d02t09.flac:98fbe5c81b1f48459a754fe18c384acb
phish2010-08-17d02t10.flac:8cde2bc81ff5cbf1bd2b0afa26747564
phish2010-08-17d03t01.flac:87244d231456db6cf52d59f2ea1cfe23
phish2010-08-17d03t02.flac:c16e65caac59ad83075001f2b012537c

Shntool

length expanded size cdr WAVE problems fmt ratio filename
15:07.16 160032476 B --- -- ---xx flac 0.5325 phish2010-08-17d01t01.flac
7:50.21 82957436 B --- -- ---xx flac 0.5666 phish2010-08-17d01t02.flac
6:56.44 73485932 B --- -- ---xx flac 0.5493 phish2010-08-17d01t03.flac
5:52.21 62142236 B --- -- ---xx flac 0.5959 phish2010-08-17d01t04.flac
5:58.09 63172412 B --- -- ---xx flac 0.5604 phish2010-08-17d01t05.flac
12:16.17 129870428 B --- -- ---xx flac 0.5120 phish2010-08-17d01t06.flac
6:21.39 67300172 B --- -- ---xx flac 0.5816 phish2010-08-17d01t07.flac
8:38.38 91464620 B --- -- ---xx flac 0.5585 phish2010-08-17d01t08.flac
10:32.23 111538940 B --- -- ---xx flac 0.5579 phish2010-08-17d01t09.flac
1:08.74 12169292 B --- -- ---xx flac 0.3805 phish2010-08-17d02t01.flac
9:34.49 101368892 B --- -- ---xx flac 0.5868 phish2010-08-17d02t02.flac
5:36.32 59345708 B --- -- ---xx flac 0.5693 phish2010-08-17d02t03.flac
7:32.06 79746956 B --- -- ---xx flac 0.6012 phish2010-08-17d02t04.flac
9:07.39 96582572 B --- -- ---xx flac 0.5566 phish2010-08-17d02t05.flac
14:14.40 150739724 B --- -- ---xx flac 0.5750 phish2010-08-17d02t06.flac
5:18.63 56243420 B --- -- ---xx flac 0.5220 phish2010-08-17d02t07.flac
11:40.52 123602348 B --- -- ---xx flac 0.5732 phish2010-08-17d02t08.flac
7:50.70 83072684 B --- -- ---xx flac 0.5612 phish2010-08-17d02t09.flac
6:52.05 72688604 B --- -- ---xx flac 0.5596 phish2010-08-17d02t10.flac
6:03.62 64179068 B --- -- ---xx flac 0.5173 phish2010-08-17d03t01.flac
5:32.34 58644812 B --- -- ---xx flac 0.5327 phish2010-08-17d03t02.flac
170:06.04 1800348732 B 0.5567 (21 files)