FilenameCommandSize
Current location: 1990/1990-06-02
Parent DirectoryOpen-
I 01 Uncle PenStream Download4,422.90 KB
I 02 Dinner And A MovieStream Download3,367.80 KB
I 03 Bouncing Around The RoomStream Download3,786.57 KB
I 04 RebaStream Download11,920.86 KB
I 05 PossumStream Download7,408.61 KB
I 06 The LizardsStream Download9,123.31 KB
Stream Show
Download Show (ZIP file)
39.09 MB
Powered by a modified Mp3ToolBox

- Show Info | Reviews | Source Info -
 

Source Information

Phish
06-02-1990
Greenstreets, Columbia, SC


Source: Unknown > Cass/x

Transfer: CDR > EAC > FLAC

The sound on this isn't great, basically for historic purposes until hopefully a better source surfaces.


Disc One:

01. Uncle Pen 4:42
02. Dinner and a Movie 3:35
03. Bouncing Around the Room 4:01
04. Reba # 12:42
05. Possum 7:53
06. The Lizards ## 9:43
** Fire (Missing)
** Contact (Missing)
** Good Times, Bad Times (Missing)


Show Notes: This setlist is most likely incomplete


# drop out 2:54-2:56
## drop out 1:24


ffp:
ph90-06-02d1t02.flac:4862ce959bc6c071f6cad736e5019483
ph90-06-02d1t03.flac:a1d2a8b9e801d6c366c15806e41cc53a
ph90-06-02d1t04.flac:9cc12dc791cdf149865c70f07c44a636
ph90-06-02d1t05.flac:1358577b8271a6030c36e280a9f4932a
ph90-06-02d1t06.flac:0809844b895f5ee6223341d9e2b5519b
ph90-06-02d1t01.flac:12fad85d74387c91a45b13585dbbbf69



M:\Alec.Swensen>shntool len c:\shows\ph1990-06-02.flac\*.wav
length expanded size cdr WAVE problems fmt ratio filename
4:42.55 49874204 B --- -- ----- wav 1.0000 c:\shows\ph1990
-06-02.flac\ph90-06-02d1t01.wav
3:35.14 37958972 B --- -- ----- wav 1.0000 c:\shows\ph1990
-06-02.flac\ph90-06-02d1t02.wav
4:01.74 42686492 B --- -- ----- wav 1.0000 c:\shows\ph1990
-06-02.flac\ph90-06-02d1t03.wav
12:42.44 134520332 B --- -- ----- wav 1.0000 c:\shows\ph1990
-06-02.flac\ph90-06-02d1t04.wav
7:53.61 83580716 B --- -- ----- wav 1.0000 c:\shows\ph1990
-06-02.flac\ph90-06-02d1t05.wav
9:43.42 102940028 B --- -- ----- wav 1.0000 c:\shows\ph1990
-06-02.flac\ph90-06-02d1t06.wav
42:39.65 451560744 B 1.0000 (6 files)

M:\Alec.Swensen>